My favorites | Sign in
Project Home Downloads Wiki Issues
New issue   Search
for
  Advanced search   Search tips   Subscriptions
Issue 98: mux 2 audio streams and 1 video into Vob.
1 person starred this issue and may be notified of changes. Back to list
Status:  Invalid
Owner:  ----
Closed:  Apr 2012


Sign in to add a comment
 
Reported by unr...@web.de, Apr 13, 2012
What steps will reproduce the problem?
1.trying to map 2 Audio files and one Video to Vob stream

What is the expected output? 
Mpeg.vob with 2 Audio streams

What do you see instead?
----

What version of the product are you using? On what operating system?
07rc7 - Windows 7

Please provide any additional information below:

- Full commandline run (with -v 3) and everything the program printed
  without the repeating parts.

ffmbc -i Video.mpg -i Audio_0.ac3 -i Audio_1.ac3 -map 0:0 -map 1:0 -map 2:0 -acodec copy -vcodec copy -f vob Muxx.mpg
FFmbc version 0.7-rc7
Copyright (c) 2008-2012 Baptiste Coudurier and the FFmpeg developers
Input #0, mpeg, from 'Video.mpg':
  Duration: 00:38:19.18, start: 0.172344, bitrate: 14659 kb/s
    Stream #0.0[0x1e0](und): Video: mpeg2video (Main), yuv420p, 720x576p [PAR 16:15 DAR 4:3], 14100 kb/s, 25.00 fps
    Stream #0.1[0x1c0](und): Audio: mp2, 48000 Hz, stereo, s16, 384 kb/s
[ac3 @ 003DF880] Estimating duration from bitrate, this may be inaccurate
Input #1, ac3, from 'Audio_0.ac3':
  Duration: 00:38:18.94, start: 0.000000, bitrate: 384 kb/s
    Stream #1.0(und): Audio: ac3, 48000 Hz, 5.1, s16, 384 kb/s
[ac3 @ 03D325C0] Estimating duration from bitrate, this may be inaccurate
Input #2, ac3, from 'Audio_1.ac3':
  Duration: 00:38:18.94, start: 0.000000, bitrate: 384 kb/s
    Stream #2.0(und): Audio: ac3, 48000 Hz, 5.1, s16, 384 kb/s
Number of stream maps must match number of output streams
Apr 13, 2012
Project Member #1 baptiste...@gmail.com
You need to add -newaudio after output file if you want to add a new audio track.
You dont need -map if you keep all audio tracks, it's mapped automatically.
Status: Invalid
Apr 13, 2012
#2 unr...@web.de
Thanx fot the quick and RIGHT answer!
I was just confused, that ffmpeg itself does not need this option...


Thanx!





Am 13.04.2012, 18:53 Uhr, schrieb <ffmbc@googlecode.com>:
Apr 13, 2012
#3 unr...@web.de
Oh... but it seems, that -ab is only set for the first audio stream, the  
second allways comes out as 64K...
Will you guys be switching to ffmpegs new options for that?! (like -b:a:0  
384K -b:a:1 384K)..?






Am 13.04.2012, 18:53 Uhr, schrieb <ffmbc@googlecode.com>:
Apr 13, 2012
Project Member #4 baptiste...@gmail.com
It is not scheduled currently.

Apr 13, 2012
#5 unr...@web.de
OK...
So I guess this issue will stay open until then?!






Am 13.04.2012, 19:47 Uhr, schrieb <ffmbc@googlecode.com>:
Apr 13, 2012
Project Member #6 baptiste...@gmail.com
What issue ? If you want to set bitrate for the other audio stream add -ab before -newaudio.
Apr 16, 2012
#7 unr...@web.de
Sorry, now I get it...
I guess I never had to do that before the changes in ffmpeg...
Thanx!



Am 13.04.2012, 19:51 Uhr, schrieb <ffmbc@googlecode.com>:
Sign in to add a comment

Powered by Google Project Hosting