My favorites | Sign in
Project Home Downloads Wiki Issues
New issue   Search
for
  Advanced search   Search tips   Subscriptions
Issue 123: Convert to ProRes from DNxHD 709 .
1 person starred this issue and may be notified of changes. Back to list
Status:  WontFix
Owner:  ----
Closed:  Oct 2012


Sign in to add a comment
 
Reported by kzcg...@gmail.com, Oct 29, 2012
What steps will reproduce the problem?

1.Convert to ProRes from DNxHD movie.

What is the expected output? What do you see instead?

The source DNxHD movie file is output in AfterEffects.
If set the RGB and 709 at Color Levels, the result is different.
I think the result of RGB output is correct.
I hope that the results will match the output of RGB and 709.


What version of the product are you using? On what operating system?
FFmbc 0.7-rc7, win32

Please provide any additional information below:

- Full commandline run (with -v 3) and everything the program printed
without
the repeating parts.

--------------------------------------------------------------------
FFmbc version 0.7-rc7
Copyright (c) 2008-2012 Baptiste Coudurier and the FFmpeg developers
Input #0, mov,mp4,m4a,3gp,3g2,mj2, from 'dnxhd709.mov':
  Metadata:
    major_brand: qt
    minor_version: 537199360
    compatible_brands: qt
    creation_time: 2012-10-29 03:12:52
  Duration: 00:00:00.12, start: 0.000000, bitrate: 88249 kb/s
    Stream #0.0(eng): Video: dnxhd, yuv422p10le, 1280x720p, 88080 kb/s, PAR 1:1 DAR 16:9, 24.00 fps
    Metadata:
      codec_name: DNxHD  709
Output #0, mov, to 'dnxhd(709)-prores.mov':
  Metadata:
    encoder: FFmbc 0.7
    Stream #0.0(und): Video: prores, yuv422p10le, 1280x720p [PAR 1:1 DAR 16:9], vbr, qp 1, 24.00 fps
Stream mapping:
  Stream #0.0 -> #0.0
Press [q] to stop, [?] for help
[mov @ 0000000001797DE0] replacing header in front, copying  1.27MB
frame=    3 fps= 19 q=1.0 Lsize=    1297kB time=00:00:00.12 bitrate=84974.8kbits/s
video:1296kB audio:0kB global headers:0kB muxing overhead 0.056218%


FFmbc version 0.7-rc7
Copyright (c) 2008-2012 Baptiste Coudurier and the FFmpeg developers
Input #0, mov,mp4,m4a,3gp,3g2,mj2, from 'dnxhdRGB.mov':
  Metadata:
    major_brand: qt
    minor_version: 537199360
    compatible_brands: qt
    creation_time: 2012-10-29 03:13:21
  Duration: 00:00:00.12, start: 0.000000, bitrate: 88249 kb/s
    Stream #0.0(eng): Video: dnxhd, yuv422p10le, 1280x720p, 88080 kb/s, PAR 1:1 DAR 16:9, 24.00 fps
    Metadata:
      codec_name: DNxHD  RGB
Output #0, mov, to 'dnxhd(RGB)-prores.mov':
  Metadata:
    encoder: FFmbc 0.7
    Stream #0.0(und): Video: prores, yuv422p10le, 1280x720p [PAR 1:1 DAR 16:9], vbr, qp 1, 24.00 fps
Stream mapping:
  Stream #0.0 -> #0.0
Press [q] to stop, [?] for help
[mov @ 0000000001797DE0] replacing header in front, copying  1.18MB
frame=    3 fps= 24 q=1.0 Lsize=    1211kB time=00:00:00.12 bitrate=79382.4kbits/s
video:1211kB audio:0kB global headers:0kB muxing overhead 0.060181%
--------------------------------------------------------------------


- Upload your sample somewhere and supply url

Oct 31, 2012
Project Member #1 baptiste...@gmail.com
Unfortunately no, the results won't match
Status: WontFix
Sign in to add a comment

Powered by Google Project Hosting